travismk
一代宗师

[2018] [欧美] [其它] [WEB-1080P] 优生学改革运动 American.Experience.The.Eugenics.Crusade.2018.1080p.AMZN.WEBRip.DDP2.0.x

-->

帖子完整标题:优生学改革运动 American.Experience.The.Eugenics.Crusade.2018.1080p.AMZN.WEBRip.DDP2.0.x264-GNOME 6.88GB



◎标  题 优生学改革运动
◎译  名 优生十字军
◎片  名 The Eugenics Crusade
◎年  代 2018
◎产  地 美国
◎类  别 纪录片 / 历史
◎语  言 英语
◎上映日期 2018-10-16(美国)
◎IMDb评分 7.8/10 (80人评价)
◎IMDb链接 https://www.imdb.com/title/tt9199294/
◎豆瓣链接 https://movie.douban.com/subject/30396728/
◎片  长 115分钟
◎导  演 Michelle Ferrari Michelle Ferrari
◎编  剧 Michelle Ferrari Michelle Ferrari
◎演  员 寇瑞·斯托尔 Corey Stoll

◎简  介
  优生学,在美国二十世纪上半叶一度是人人追捧的显学。在冷泉实验室,达文波特借助他的优生学理论和调查报告,游说美国财团和政府,用智商测试,对人口进行分层,不合格的人会被强行实施绝育手术。从二十年代起,美国政府对东欧和犹太移民抬高门槛,背后的逻辑也是出自优生学的遗传理论,唯恐北欧正统的移民基因被“污染”,此举在三十年代导致大批欧洲犹太人走投无路,死于纳粹集中营。这套基于种族净化理念的优生学,也被德国纳粹继承,并发扬光大。不过,大萧条造成的全面失业破除了优生神话,好莱坞影片《明日的孩子》、以及强行绝育的黑暗内幕的曝光,加上二战末期纳粹灭绝营的恐怖图景的传播,使得美国的优生学在四十年代后逐渐式微,但各州的强行绝育法律直到六七十年代,才被废止。

Video
ID : 1
Format : AVC
Format/Info : Advanced Video Codec
Format profile : [email protected]
Format settings : CABAC / 4 Ref Frames
Format settings, CABAC : Yes
Format settings, Reference frames : 4 frames
Codec ID : V_MPEG4/ISO/AVC
Duration : 1 h 53 min
Bit rate mode : Constant
Bit rate : 8 455 kb/s
Nominal bit rate : 10 000 kb/s
Width : 1 920 pixels
Height : 1 080 pixels
Display aspect ratio : 16:9
Frame rate mode : Constant
Frame rate : 23.976 (24000/1001/189150) FPS
Color space : YUV
Chroma subsampling : 4:2:0
Bit depth : 8 bits
Scan type : Progressive
Bits/(Pixel*Frame) : 0.170
Stream size : 6.70 GiB (97%)
Language : English
Default : Yes
Forced : No
Color range : Limited
Color primaries : BT.709
Transfer characteristics : BT.709
Matrix coefficients : BT.709

Audio
ID : 2
Format : E-AC-3
Format/Info : Enhanced AC-3
Commercial name : Dolby Digital Plus
Codec ID : A_EAC3
Duration : 1 h 53 min
Bit rate mode : Constant
Bit rate : 224 kb/s
Channel(s) : 2 channels
Channel layout : L R
Sampling rate : 48.0 kHz
Frame rate : 31.250 FPS (1536 SPF)
Compression mode : Lossy
Stream size : 182 MiB (3%)
Title : Dolby Digital Plus / 2.0 / 48 kHz / 224 kbps
Language : English
Service kind : Complete Main
Default : Yes
Forced : No

Text #1
ID : 3
Format : UTF-8
Codec ID : S_TEXT/UTF8
Codec ID/Info : UTF-8 Plain Text
Duration : 1 h 51 min
Bit rate : 94 b/s
Frame rate : 0.311 FPS
Count of elements : 2088
Stream size : 77.2 KiB (0%)
Language : English
Default : No
Forced : No

Text #2
ID : 4
Format : UTF-8
Codec ID : S_TEXT/UTF8
Codec ID/Info : UTF-8 Plain Text
Duration : 1 h 52 min
Bit rate : 96 b/s
Frame rate : 0.317 FPS
Count of elements : 2148
Stream size : 80.1 KiB (0%)
Title : SDH
Language : English
Default : No
Forced : No





1 个附件 售价 大小 下载 时间

American.Experience.The.Eugenics.Crusade.2018.1080p.AMZN.WEBRip.DDP2.0.x264-GNOME.torrent 0 金币 17.89K 217 次 3天前

#1楼
发帖时间:2022-08-06 17:02:07   |   回复数:0
游客组