travismk
一代宗师

[2022] [欧美] [惊悚] [WEB-1080P] 激战游艇 The.Yacht.2022.1080p.AMZN.WEBRip.DDP5.1.x264-NOGRP 5.11GB

-->

帖子完整标题:激战游艇 The.Yacht.2022.1080p.AMZN.WEBRip.DDP5.1.x264-NOGRP 5.11GB



◎标  题 激战游艇
◎译  名 惊险游艇 / Stowaway
◎片  名 The Yacht
◎年  代 2022
◎产  地 美国
◎类  别 惊悚
◎语  言 英语
◎上映日期 2022-08-06(美国)
◎IMDb评分 4.4/10 (18人评价)
◎IMDb链接 https://www.imdb.com/title/tt8889818/
◎豆瓣链接 https://movie.douban.com/subject/35384295/
◎导  演 迪克兰·怀特布鲁姆 Declan Whitebloom
◎编  剧 伊恩·海登 Ian Hayden
◎演  员 鲁比·罗丝 Ruby Rose
      弗兰克·格里罗 Frank Grillo
      帕特里克·施瓦辛格 Patrick Schwarzenegger
      小路易斯·达·席尔瓦 Luis Da Silva Jr.
      梅杰·道奇 Major Dodge
      James Di Giacomo James Di Giacomo
      艾玛·马多克 Emma Maddock

◎简  介
  鲁比罗丝饰演的女主贝拉是一个顽强而多愁善感的年轻女子,父亲的离世让她意外继承了一艘豪华游艇。夜晚,游艇被几名雇佣军劫持,面对退无可无退的境地,她不得不为生存而战,与敌人展开激烈斡旋。当猎物变成了猎手,她把武器转向入侵者,向他们一一开战……

Video
ID : 1
Format : AVC
Format/Info : Advanced Video Codec
Format profile : [email protected]
Format settings : CABAC / 4 Ref Frames
Format settings, CABAC : Yes
Format settings, Reference frames : 4 frames
Codec ID : V_MPEG4/ISO/AVC
Duration : 1 h 34 min
Bit rate mode : Constant
Bit rate : 7 121 kb/s
Nominal bit rate : 10 000 kb/s
Width : 1 920 pixels
Height : 800 pixels
Display aspect ratio : 2.40:1
Frame rate mode : Constant
Frame rate : 24.000 FPS
Color space : YUV
Chroma subsampling : 4:2:0
Bit depth : 8 bits
Scan type : Progressive
Bits/(Pixel*Frame) : 0.193
Stream size : 4.68 GiB (92%)
Default : Yes
Forced : No
Color range : Limited
Color primaries : BT.709
Transfer characteristics : BT.709
Matrix coefficients : BT.709

Audio
ID : 2
Format : E-AC-3
Format/Info : Enhanced AC-3
Commercial name : Dolby Digital Plus
Codec ID : A_EAC3
Duration : 1 h 34 min
Bit rate mode : Constant
Bit rate : 640 kb/s
Channel(s) : 6 channels
Channel layout : L R C LFE Ls Rs
Sampling rate : 48.0 kHz
Frame rate : 31.250 FPS (1536 SPF)
Compression mode : Lossy
Stream size : 431 MiB (8%)
Language : English
Service kind : Complete Main
Default : Yes
Forced : No

Text #1
ID : 3
Format : UTF-8
Codec ID : S_TEXT/UTF8
Codec ID/Info : UTF-8 Plain Text
Duration : 1 h 29 min
Bit rate : 33 b/s
Frame rate : 0.159 FPS
Count of elements : 852
Stream size : 21.8 KiB (0%)
Language : English
Default : Yes
Forced : No

Text #2
ID : 4
Format : UTF-8
Codec ID : S_TEXT/UTF8
Codec ID/Info : UTF-8 Plain Text
Duration : 1 h 33 min
Bit rate : 36 b/s
Frame rate : 0.234 FPS
Count of elements : 1322
Stream size : 24.8 KiB (0%)
Title : SDH
Language : English
Default : No
Forced : No





1 个附件 售价 大小 下载 时间

The.Yacht.2022.1080p.AMZN.WEBRip.DDP5.1.x264-NOGRP.torrent 0 金币 13.39K 938 次 4天前

#1楼
发帖时间:2022-08-06 16:55:42   |   回复数:0
游客组