fg603603
一代宗师

[2017] [欧美] [剧情] [WEB-1080P] 开放式婚姻 Open.Marriage.2017.1080p.AMZN.WEBRip.DDP5.1.x264-NOGRP 4.65GB

-->

帖子完整标题:开放式婚姻 Open.Marriage.2017.1080p.AMZN.WEBRip.DDP5.1.x264-NOGRP 4.65GB



◎译  名 开放式婚姻
◎片  名 Open Marriage
◎年  代 2017
◎产  地 美国
◎类  别 剧情 / 惊悚
◎语  言 英语
◎上映日期 2017-01-14(美国)
◎豆瓣评分 /10 from 0 users
◎豆瓣链接 https://movie.douban.com/subject/26957194/
◎片  长 83分钟
◎导  演 山姆·伊文 Sam Irvin
◎编  剧 Jason Byers Jason Byers
◎主  演 蒂尔基·琼斯 Tilky Jones
      妮琪·李 Nikki Leigh
      Kelly Dowdle Kelly Dowdle
      黛布拉·威尔逊 Debra Wilson

◎简  介

  A young, disenchanted couple (Ron and Becca) agree to engage in an open relationship with their couple friends (Mindy and Max) in hopes of rekindling their love life, but none of those involved anticipate the jealousy, heartbreak and betrayal that soon follow.

Video
ID : 1
Format : AVC
Format/Info : Advanced Video Codec
Format profile : [email protected]
Format settings : CABAC / 4 Ref Frames
Format settings, CABAC : Yes
Format settings, Reference frames : 4 frames
Codec ID : V_MPEG4/ISO/AVC
Duration : 1 h 25 min
Bit rate mode : Variable
Bit rate : 7 108 kb/s
Maximum bit rate : 15.0 Mb/s
Width : 1 920 pixels
Height : 1 080 pixels
Display aspect ratio : 16:9
Frame rate mode : Constant
Frame rate : 23.976 (24000/1001/189150) FPS
Color space : YUV
Chroma subsampling : 4:2:0
Bit depth : 8 bits
Scan type : Progressive
Bits/(Pixel*Frame) : 0.143
Stream size : 4.26 GiB (92%)
Language : English
Default : Yes
Forced : No
Color range : Limited
Color primaries : BT.709
Transfer characteristics : BT.709
Matrix coefficients : BT.709

Audio
ID : 2
Format : E-AC-3
Format/Info : Enhanced AC-3
Commercial name : Dolby Digital Plus
Codec ID : A_EAC3
Duration : 1 h 25 min
Bit rate mode : Constant
Bit rate : 640 kb/s
Channel(s) : 6 channels
Channel layout : L R C LFE Ls Rs
Sampling rate : 48.0 kHz
Frame rate : 31.250 FPS (1536 SPF)
Compression mode : Lossy
Stream size : 393 MiB (8%)
Language : English
Service kind : Complete Main
Default : Yes
Forced : No

Text
ID : 3
Format : UTF-8
Codec ID : S_TEXT/UTF8
Codec ID/Info : UTF-8 Plain Text
Duration : 1 h 21 min
Bit rate : 57 b/s
Count of elements : 1330
Stream size : 34.6 KiB (0%)
Language : English
Default : Yes
Forced : No





1 个附件 售价 大小 下载 时间

Open.Marriage.2017.1080p.AMZN.WEBRip.DDP5.1.x264-NOGRP.torrent 0 金币 23.89K 1603 次 8天前

#1楼
发帖时间:2022-01-14 20:09:50   |   回复数:0
游客组