travismk
一代宗师

[更 早] [欧美] [剧情] [BD-1080P] 火爆教头/蓝筹 Blue.Chips.1994.1080p.BluRay.x264-MiMiC 17.52GB

-->

帖子完整标题:火爆教头/蓝筹 Blue.Chips.1994.1080p.BluRay.x264-MiMiC 17.52GB



◎译  名 火爆教头/蓝筹
◎片  名 Blue Chips
◎年  代 1994
◎产  地 美国
◎类  别 剧情 / 运动
◎语  言 英语
◎上映日期 1994-02-18
◎豆瓣评分 7.2/10 from 551 users
◎豆瓣链接 https://movie.douban.com/subject/1297671/
◎片  长 108 分钟
◎导  演 威廉·弗莱德金 William Friedkin
◎编  剧 罗恩·谢尔顿 Ron Shelton
◎主  演 尼克·诺特 Nick Nolte
      玛丽·麦克唐纳 Mary McDonnell
      J·T·沃尔什 J.T. Walsh
      艾德·奥尼尔 Ed O'Neill
      阿尔法·伍达德 Alfre Woodard
      沙奎尔·奥尼尔 Shaquille O'Neal
      鲍勃·库西 Bob Cousy
      Rayder Woods Rayder Woods
      Gary Vitti Gary Vitti
      Rex Walters Rex Walters
      Keith Smart Keith Smart
      Jim Boeheim Jim Boeheim
      Dennis Tracy Dennis Tracy
      弗兰克·罗西 Frank Rossi
      Rodney Rogers Rodney Rogers
      Veronica Grey Veronica Grey
       Randy Algoe
       Michael Johnson
      George Raveling George Raveling
      拉里·伯德 Larry Bird
      Dick Vitale Dick Vitale
      Bobby Knight Bobby Knight
      Rick Pitino Rick Pitino
      Jerry Tarkanian Jerry Tarkanian
      Matt Painter Matt Painter
      John E. Blazier John E. Blazier
      Eric Anderson Eric Anderson
      Melinda Allen Melinda Allen
      波斯·怀特 Persia White
      罗伯特·乌尔 Robert Wuhl
      吉姆·卡维泽 Jim Caviezel
      吉姆·比弗 Jim Beaver
      瑞克·福克斯 Rick Fox
      小路易斯·格赛特 Louis Gossett Jr.
      Mitchell Butler Mitchell Butler
      西尔克·科扎特 Cylk Cozart
      Allan Malamud Allan Malamud
      Chris Mills Chris Mills
      George D. Lynch III George D. Lynch III
      Nigel Miguel Nigel Miguel
      Adonis Jordan Adonis Jordan
      Bobby Hurley Bobby Hurley
      Sasha Hupman Sasha Hupman
      Marques Johnson Marques Johnson
      安芬尼·哈达威 Anfernee 'Penny' Hardaway
      Geert Hammink Geert Hammink
      Allan Houston Allan Houston
      Calbert Cheaney Calbert Cheaney
      Demetrius Calip Demetrius Calip

◎标  签 体育 | 篮球 | 运动 | 美国 | 美国电影 | 1994 | 运动-篮球题材片 | ShaquilleO'Neal

◎简  介

  一名大学篮球队教练本来用正规方法训练他的球员,可是在他输掉了生平的第一个球季之后,他开始采各种火爆手段来刺激那群菜鸟球员以争取胜利。本片剧本写出了不少大学篮球赛的黑幕,对这个校园运动系统的丑陋面有所讽刺。导演威廉.弗里德金处理打球动作场面表现不俗,尼克.诺尔蒂扮演火爆教头亦卖力得很,加上不少NBA明星客串亮相演出,应该可以让喜欢篮球运动的观众叫好。

Video
ID : 1
Format : AVC
Format/Info : Advanced Video Codec
Format profile : [email protected]
Format settings : CABAC / 4 Ref Frames
Format settings, CABAC : Yes
Format settings, Reference frames : 4 frames
Codec ID : V_MPEG4/ISO/AVC
Duration : 1 h 47 min
Bit rate : 21.5 Mb/s
Width : 1 920 pixels
Height : 1 080 pixels
Display aspect ratio : 16:9
Frame rate mode : Constant
Frame rate : 23.976 (24000/1001/189150) FPS
Color space : YUV
Chroma subsampling : 4:2:0
Bit depth : 8 bits
Scan type : Progressive
Bits/(Pixel*Frame) : 0.433
Stream size : 16.2 GiB (93%)
Writing library : x264 core 164 r3065 ae03d92
Encoding settings : cabac=1 / ref=4 / deblock=1:0:0 / analyse=0x3:0x133 / me=umh / subme=9 / psy=1 / psy_rd=1.00:0.00 / mixed_ref=1 / me_range=16 / chroma_me=1 / trellis=2 / 8x8dct=1 / cqm=0 / deadzone=21,11 / fast_pskip=0 / chroma_qp_offset=-2 / threads=34 / lookahead_threads=2 / sliced_threads=0 / nr=0 / decimate=0 / interlaced=0 / bluray_compat=0 / constrained_intra=0 / bframes=3 / b_pyramid=2 / b_adapt=2 / b_bias=0 / direct=3 / weightb=1 / open_gop=0 / weightp=2 / keyint=240 / keyint_min=23 / scenecut=40 / intra_refresh=0 / rc=crf / mbtree=0 / crf=20.3 / qcomp=0.60 / qpmin=0 / qpmax=69 / qpstep=4 / ip_ratio=1.40 / pb_ratio=1.30 / aq=1:1.00
Default : Yes
Forced : No
Color range : Limited
Matrix coefficients : BT.709

Audio
ID : 2
Format : MLP FBA
Format/Info : Meridian Lossless Packing FBA
Commercial name : Dolby TrueHD
Codec ID : A_TRUEHD
Duration : 1 h 47 min
Bit rate mode : Variable
Bit rate : 1 579 kb/s
Maximum bit rate : 2 778 kb/s
Channel(s) : 6 channels
Channel layout : L R C LFE Ls Rs
Sampling rate : 48.0 kHz
Frame rate : 1 200.000 FPS (40 SPF)
Compression mode : Lossless
Stream size : 1.19 GiB (7%)
Language : English
Default : Yes
Forced : No

Text #1
ID : 3
Format : PGS
Muxing mode : zlib
Codec ID : S_HDMV/PGS
Codec ID/Info : Picture based subtitle format used on BDs/HD-DVDs
Duration : 1 h 43 min
Bit rate : 53.3 kb/s
Count of elements : 3176
Stream size : 39.3 MiB (0%)
Title : English
Language : English
Default : No
Forced : No

Text #2
ID : 4
Format : PGS
Muxing mode : zlib
Codec ID : S_HDMV/PGS
Codec ID/Info : Picture based subtitle format used on BDs/HD-DVDs
Duration : 1 h 46 min
Bit rate : 60.7 kb/s
Count of elements : 4604
Stream size : 46.2 MiB (0%)
Title : English - SDH
Language : English
Default : No
Forced : No

Text #3
ID : 5
Format : PGS
Muxing mode : zlib
Codec ID : S_HDMV/PGS
Codec ID/Info : Picture based subtitle format used on BDs/HD-DVDs
Duration : 1 h 47 min
Bit rate : 46.2 kb/s
Count of elements : 3196
Stream size : 35.6 MiB (0%)
Title : French
Language : French
Default : No
Forced : No

Text #4
ID : 6
Format : PGS
Muxing mode : zlib
Codec ID : S_HDMV/PGS
Codec ID/Info : Picture based subtitle format used on BDs/HD-DVDs
Duration : 1 h 47 min
Bit rate : 52.7 kb/s
Count of elements : 3932
Stream size : 40.4 MiB (0%)
Title : Spanish
Language : Spanish
Default : No
Forced : No

Menu
00:00:00.000 : Chapter 01
00:24:18.999 : Chapter 02
00:32:05.465 : Chapter 03
00:37:43.803 : Chapter 04
00:41:45.461 : Chapter 05
00:43:37.532 : Chapter 06
00:46:36.127 : Chapter 07
00:54:27.681 : Chapter 08
01:00:05.268 : Chapter 09
01:05:41.938 : Chapter 10
01:08:49.959 : Chapter 11
01:11:20.318 : Chapter 12
01:19:49.535 : Chapter 13
01:34:15.441 : Chapter 14
01:41:42.096 : Chapter 15





1 个附件 售价 大小 下载 时间

Blue.Chips.1994.1080p.BluRay.x264-MiMiC.torrent 0 金币 22.69K 413 次 7天前

#1楼
发帖时间:2021-10-15 00:03:26   |   回复数:1
Jasongreat
武林盟主
谢谢楼主的分享啦
7天前 #2楼
游客组