travismk
一代宗师

[更 早] [其他] [其他] [BD-720P] 再见费里尼! Ciao.Federico.1970.720p.BluRay.x264-BiPOLAR 2.07GB

-->

帖子完整标题:再见费里尼! Ciao.Federico.1970.720p.BluRay.x264-BiPOLAR 2.07GB



◎译  名 再见,费里尼!
◎片  名 Ciao, Federico!
◎年  代 1970
◎产  地 意大利,美国,瑞典
◎类  别 纪录片
◎语  言 意大利语,英语
◎上映日期 1970
◎豆瓣评分 7.3/10 from 167 users
◎豆瓣链接 https://movie.douban.com/subject/4910842/
◎片  长 55 分钟
◎主  演 费德里科·费里尼 Federico Fellini
      阿兰·居尼 Alain Cuny
      海勒姆·凯勒 Hiram Keller
      罗慕洛·瓦利 Romolo Valli
      丹提·费瑞提 Dante Ferretti
      卡普西尼 Capucine
      梅克斯·玻恩 Max Born
      桑德拉·米洛 Sandra Milo
      马丁·波特 Martin Potter
      塔妮娅·洛佩尔 Tanya Lopert
      朱丽叶塔·马西纳 Giulietta Masina
      莎朗·塔特 Sharon Tate
      玛加莉·诺埃尔 Magali No?l
      萨尔沃·兰多纳 Salvo Randone
      罗曼·波兰斯基 Roman Polanski

◎标  签 纪录片 | 意大利 | 费里尼 | 费德里科·费里尼 | 1970s | FedericoFellini | 1970 | T纪录片

◎简  介

  暂无相关剧情介绍

Video
ID : 1
Format : AVC
Format/Info : Advanced Video Codec
Format profile : [email protected]
Format settings : CABAC / 12 Ref Frames
Format settings, CABAC : Yes
Format settings, Reference frames : 12 frames
Codec ID : V_MPEG4/ISO/AVC
Duration : 1 h 0 min
Bit rate : 4 722 kb/s
Width : 960 pixels
Height : 720 pixels
Display aspect ratio : 4:3
Frame rate mode : Constant
Frame rate : 23.976 (24000/1001/189150) FPS
Color space : YUV
Chroma subsampling : 4:2:0
Bit depth : 8 bits
Scan type : Progressive
Bits/(Pixel*Frame) : 0.285
Stream size : 1.99 GiB (96%)
Writing library : x264 core 164 r3075 66a5bc1
Encoding settings : cabac=1 / ref=12 / deblock=1:-3:-3 / analyse=0x3:0x133 / me=umh / subme=10 / psy=1 / psy_rd=1.00:0.15 / mixed_ref=1 / me_range=24 / chroma_me=1 / trellis=2 / 8x8dct=1 / cqm=0 / deadzone=21,11 / fast_pskip=1 / chroma_qp_offset=-3 / threads=18 / lookahead_threads=3 / sliced_threads=0 / nr=0 / decimate=1 / interlaced=0 / bluray_compat=0 / constrained_intra=0 / bframes=8 / b_pyramid=2 / b_adapt=2 / b_bias=0 / direct=3 / weightb=1 / open_gop=0 / weightp=2 / keyint=250 / keyint_min=23 / scenecut=40 / intra_refresh=0 / rc_lookahead=60 / rc=crf / mbtree=1 / crf=22.0 / qcomp=0.60 / qpmin=0 / qpmax=69 / qpstep=4 / ip_ratio=1.40 / aq=3:0.50
Language : English
Default : Yes
Forced : No

Audio
ID : 2
Format : AC-3
Format/Info : Audio Coding 3
Commercial name : Dolby Digital
Codec ID : A_AC3
Duration : 1 h 0 min
Bit rate mode : Constant
Bit rate : 192 kb/s
Channel(s) : 1 channel
Channel layout : C
Sampling rate : 48.0 kHz
Frame rate : 31.250 FPS (1536 SPF)
Compression mode : Lossy
Stream size : 82.8 MiB (4%)
Language : Italian
Service kind : Complete Main
Default : Yes
Forced : No

Text #1
ID : 3
Format : UTF-8
Codec ID : S_TEXT/UTF8
Codec ID/Info : UTF-8 Plain Text
Duration : 58 min 35 s
Bit rate : 24 b/s
Count of elements : 375
Stream size : 10.4 KiB (0%)
Title : English forced
Language : English
Default : Yes
Forced : Yes

Text #2
ID : 4
Format : PGS
Muxing mode : zlib
Codec ID : S_HDMV/PGS
Codec ID/Info : Picture based subtitle format used on BDs/HD-DVDs
Duration : 58 min 35 s
Bit rate : 6 033 b/s
Count of elements : 750
Stream size : 2.53 MiB (0%)
Title : English forced
Language : English
Default : No
Forced : No





1 个附件 售价 大小 下载 时间

Ciao.Federico.1970.720p.BluRay.x264-BiPOLAR.torrent 0 金币 21.44K 364 次 7天前

#1楼
发帖时间:2021-10-15 00:01:28   |   回复数:0
游客组