travismk
一代宗师

[更 早] [其他] [剧情] [BD-720P] 导演笔记 Fellini.A.Directors.Notebook.1969.720p.BluRay.x264-BiPOLAR 1.26GB

-->

帖子完整标题:导演笔记 Fellini.A.Directors.Notebook.1969.720p.BluRay.x264-BiPOLAR 1.26GB



◎译  名 导演笔记/Fellini: A Director's Notebook
◎片  名 Block-notes di un regista
◎年  代 1969
◎产  地 意大利
◎类  别 剧情 / 喜剧 / 动画 / 音乐
◎语  言 英语,意大利语
◎上映日期 1969-03-15(美国)
◎豆瓣评分 7.1/10 from 132 users
◎豆瓣链接 https://movie.douban.com/subject/1453584/
◎片  长 60分钟
◎导  演 费德里科·费里尼 Federico Fellini
◎编  剧 费德里科·费里尼 Federico Fellini / 贝纳迪诺·扎波尼 Bernardino Zapponi
◎主  演 恩尼奥·安东内利 Ennio Antonelli
      卡特丽娜·波拿托 Caterina Boratto
      帕斯奎利诺·德桑蒂斯 Pasqualino De Santis
      费德里科·费里尼 Federico Fellini
      朱丽叶塔·马西纳 Giulietta Masina
      马塞洛·马斯楚安尼 Marcello Mastroianni
      尼诺·罗塔 Nino Rota
      阿尔瓦罗·维塔利 Alvaro Vitali

◎标  签 意大利 | 纪录片 | 费里尼 | 费德里科·费里尼 | 1960s | FedericoFellini | 1969 | Federico_Fellini

◎简  介

  Fellini discusses his views of making motion pictures and his unorthodox procedures. He seeks inspiration in various out of the way places. During this film viewers go with him to the Colisseum at night, on a subway ride past Roman ruins, to the Appian Way, to a slaughterhouse, and on a visit to Marcello Mastroianni's house. Fellini also is seen in his own office interviewing a series of unusual characters seeking work or his help.

Video
ID : 1
Format : AVC
Format/Info : Advanced Video Codec
Format profile : [email protected]
Format settings : CABAC / 11 Ref Frames
Format settings, CABAC : Yes
Format settings, Reference frames : 11 frames
Codec ID : V_MPEG4/ISO/AVC
Duration : 51 min 48 s
Bit rate : 3 294 kb/s
Width : 984 pixels
Height : 720 pixels
Display aspect ratio : 4:3
Frame rate mode : Constant
Frame rate : 23.976 (24000/1001/189150) FPS
Color space : YUV
Chroma subsampling : 4:2:0
Bit depth : 8 bits
Scan type : Progressive
Bits/(Pixel*Frame) : 0.194
Stream size : 1.19 GiB (94%)
Writing library : x264 core 164 r3075 66a5bc1
Encoding settings : cabac=1 / ref=11 / deblock=1:-3:-3 / analyse=0x3:0x133 / me=umh / subme=10 / psy=1 / psy_rd=1.00:0.15 / mixed_ref=1 / me_range=24 / chroma_me=1 / trellis=2 / 8x8dct=1 / cqm=0 / deadzone=21,11 / fast_pskip=1 / chroma_qp_offset=-3 / threads=18 / lookahead_threads=3 / sliced_threads=0 / nr=0 / decimate=1 / interlaced=0 / bluray_compat=0 / constrained_intra=0 / bframes=8 / b_pyramid=2 / b_adapt=2 / b_bias=0 / direct=3 / weightb=1 / open_gop=0 / weightp=2 / keyint=250 / keyint_min=23 / scenecut=40 / intra_refresh=0 / rc_lookahead=60 / rc=crf / mbtree=1 / crf=23.2 / qcomp=0.60 / qpmin=0 / qpmax=69 / qpstep=4 / ip_ratio=1.40 / aq=3:0.50
Language : English
Default : Yes
Forced : No

Audio
ID : 2
Format : AC-3
Format/Info : Audio Coding 3
Commercial name : Dolby Digital
Codec ID : A_AC3
Duration : 51 min 48 s
Bit rate mode : Constant
Bit rate : 192 kb/s
Channel(s) : 1 channel
Channel layout : C
Sampling rate : 48.0 kHz
Frame rate : 31.250 FPS (1536 SPF)
Compression mode : Lossy
Stream size : 71.1 MiB (6%)
Language : English
Service kind : Complete Main
Default : Yes
Forced : No





1 个附件 售价 大小 下载 时间

Fellini.A.Directors.Notebook.1969.720p.BluRay.x264-BiPOLAR.torrent 0 金币 13.40K 455 次 7天前

#1楼
发帖时间:2021-10-14 23:59:22   |   回复数:0
游客组