travismk
一代宗师

[更 早] [其他] [其他] [BD-720P] 费里尼:我是说谎者 Fellini.Im.a.Born.Liar.2002.720p.BluRay.x264-BiPOLAR 2.41GB

-->

帖子完整标题:费里尼:我是说谎者 Fellini.Im.a.Born.Liar.2002.720p.BluRay.x264-BiPOLAR 2.41GB



◎译  名 费里尼:我是说谎者/Fellini: I'm a Born Liar/天生谎言家
◎片  名 Fellini: Je suis un grand menteur
◎年  代 2002
◎产  地 法国,意大利,英国
◎类  别 纪录片 / 传记
◎语  言 英语,意大利语,法语
◎上映日期 2002-03-15
◎豆瓣评分 7.6/10 from 315 users
◎豆瓣链接 https://movie.douban.com/subject/1307877/
◎导  演 Damian Pettigrew Damian Pettigrew
◎编  剧 Damian Pettigrew Damian Pettigrew
◎主  演 费德里科·费里尼 Federico Fellini
      丹尼尔·托斯坎·杜普兰蒂尔 Daniel Toscan du Plantier
      丹提·费瑞提 Dante Ferretti
      尼诺·罗塔 Nino Rota
      罗伯托·贝尼尼 Roberto Benigni
      图里奥·皮内利 Tullio Pinelli
      特伦斯·斯坦普 Terence Stamp
      朱塞佩·罗通诺 Giuseppe Rotunno
      伊塔洛·卡尔维诺 Italo Calvino
      朱丽叶塔·马西纳 Giulietta Masina
      唐纳德·萨瑟兰 Donald Sutherland

◎标  签 纪录片 | 费里尼 | 意大利 | 法国 | 意大利电影 | FedericoFellini | Federico_Fellini | 传记

◎简  介

  影片主要以费里尼后期电影,如《我记得,想当年》、《卡萨诺瓦》、《月吟》等为切入点,结合片长实录、访谈、费里尼本人自述。

Video
ID : 1
Format : AVC
Format/Info : Advanced Video Codec
Format profile : [email protected]
Format settings : CABAC / 9 Ref Frames
Format settings, CABAC : Yes
Format settings, Reference frames : 9 frames
Codec ID : V_MPEG4/ISO/AVC
Duration : 1 h 41 min
Bit rate : 3 195 kb/s
Width : 1 254 pixels
Height : 720 pixels
Display aspect ratio : 16:9
Frame rate mode : Constant
Frame rate : 25.000 FPS
Color space : YUV
Chroma subsampling : 4:2:0
Bit depth : 8 bits
Scan type : Progressive
Bits/(Pixel*Frame) : 0.142
Stream size : 2.26 GiB (94%)
Writing library : x264 core 164 r3075 66a5bc1
Encoding settings : cabac=1 / ref=9 / deblock=1:-3:-3 / analyse=0x3:0x133 / me=umh / subme=10 / psy=1 / psy_rd=1.00:0.15 / mixed_ref=1 / me_range=24 / chroma_me=1 / trellis=2 / 8x8dct=1 / cqm=0 / deadzone=21,11 / fast_pskip=1 / chroma_qp_offset=-3 / threads=18 / lookahead_threads=3 / sliced_threads=0 / nr=0 / decimate=1 / interlaced=0 / bluray_compat=0 / constrained_intra=0 / bframes=8 / b_pyramid=2 / b_adapt=2 / b_bias=0 / direct=3 / weightb=1 / open_gop=0 / weightp=2 / keyint=250 / keyint_min=25 / scenecut=40 / intra_refresh=0 / rc_lookahead=60 / rc=crf / mbtree=1 / crf=17.0 / qcomp=0.60 / qpmin=0 / qpmax=69 / qpstep=4 / ip_ratio=1.40 / aq=3:0.60
Language : English
Default : Yes
Forced : No

Audio
ID : 2
Format : AC-3
Format/Info : Audio Coding 3
Commercial name : Dolby Digital
Codec ID : A_AC3
Duration : 1 h 41 min
Bit rate mode : Constant
Bit rate : 192 kb/s
Channel(s) : 2 channels
Channel layout : L R
Sampling rate : 48.0 kHz
Frame rate : 31.250 FPS (1536 SPF)
Compression mode : Lossy
Stream size : 139 MiB (6%)
Language : Italian
Service kind : Complete Main
Default : Yes
Forced : No

Text #1
ID : 3
Format : UTF-8
Codec ID : S_TEXT/UTF8
Codec ID/Info : UTF-8 Plain Text
Duration : 1 h 37 min
Bit rate : 45 b/s
Count of elements : 995
Stream size : 32.1 KiB (0%)
Title : English forced
Language : English
Default : Yes
Forced : Yes

Text #2
ID : 4
Format : PGS
Muxing mode : zlib
Codec ID : S_HDMV/PGS
Codec ID/Info : Picture based subtitle format used on BDs/HD-DVDs
Duration : 1 h 37 min
Bit rate : 6 521 b/s
Count of elements : 1990
Stream size : 4.53 MiB (0%)
Title : English forced
Language : English
Default : No
Forced : No





1 个附件 售价 大小 下载 时间

Fellini.Im.a.Born.Liar.2002.720p.BluRay.x264-BiPOLAR.torrent 0 金币 24.81K 406 次 7天前

#1楼
发帖时间:2021-10-14 23:49:46   |   回复数:0
游客组