fg603603
武林盟主

[更 早] [其他] [动作] [BD-4K] 速度与激情9/F9狂野时速 Fast.and.Furious.F9.The.Fast.Saga.2021.2160p.WEB-DL.DDP5.1.Atmos.D

-->

帖子完整标题:速度与激情9/F9狂野时速 Fast.and.Furious.F9.The.Fast.Saga.2021.2160p.WEB-DL.DDP5.1.Atmos.DV.MP4.x265-FLUX 15.15GB



◎译  名 速度与激情9/F9狂野时速(港)/Fast & Furious 9/FF9/狂野时速9/玩命关头9(台)/速激9
◎片  名 F9: The Fast Saga
◎年  代 2021
◎产  地 美国,泰国,加拿大
◎类  别 动作 / 犯罪
◎语  言 英语
◎上映日期 2021-05-19(韩国) / 2021-05-21(中国大陆) / 2021-06-25(美国)
◎豆瓣评分 5.5/10 from 129290 users
◎豆瓣链接 https://movie.douban.com/subject/25728006/
◎片  长 142分钟(中国大陆)
◎导  演 林诣彬 Justin Lin
◎编  剧 丹·凯西 Daniel Casey / 盖瑞·斯科特·汤普森 Gary Scott Thompson / 克里斯·摩根 Chris Morgan
◎主  演 范·迪塞尔 Vin Diesel
      约翰·塞纳 John Cena
      米歇尔·罗德里格兹 Michelle Rodriguez
      乔丹娜·布鲁斯特 Jordana Brewster
      泰瑞斯·吉布森 Tyrese Gibson
      卢达·克里斯 Ludacris
      查理兹·塞隆 Charlize Theron
      海伦·米伦 Helen Mirren
      姜成镐 Sung Kang
      娜塔莉·伊曼纽尔 Nathalie Emmanuel
      迈克尔·鲁克 Michael Rooker
      卢卡斯·布莱克 Lucas Black
      杜俊纬 Jason Tobin
      卡迪·B Cardi B
      吉姆·帕拉克 Jim Parrack
      芬恩·科尔 Finn Cole
      安珀·西耶娜 Amber Sienna
      马丁·福特 Martyn Ford
      艾拉·沃克 Ella Walker
      泽井杏奈 Anna Sawai
      图厄·埃尔斯特德·拉斯姆森 Thue Ersted Rasmussen
      米拉吉·格尔比克 Miraj Grbic
      吉米·斯达 Jimmy Star
      莱克斯·艾尔 Lex Elle
      温尼·贝内特 Vinnie Bennett
      马克·克雷尼克 Mark Krenik
      杰森·斯坦森 Jason Statham

◎标  签 动作 | 飙车 | 美国 | 犯罪 | 跑车 | 2021 | 科幻 | 赛车

◎简  介

  “唐老大”多姆·托莱多(范·迪塞尔 饰)与莱蒂(米歇尔·罗德里格兹 饰)和他的儿子小布莱恩,过上了远离纷扰的平静生活。然而他们也知道,安宁之下总潜藏着危机。这一次,为了保护他所爱的人,唐老大不得不直面过去。他和伙伴们面临的是一场足以引起世界动荡的阴谋,以及一个前所未遇的一流杀手和高能车手。而这个名叫雅各布(约翰·塞纳 饰)的人,恰巧是多姆遗落在外的亲弟弟。

◎获奖情况

  第7届豆瓣电影年度榜单 ?(2020)
  最值得期待的外语电影(提名)
  
  第6届豆瓣电影年度榜单 ?(2019)
  最值得期待的外语电影(提名)

Video
ID : 1
Format : HEVC
Format/Info : High Efficiency Video Coding
Format profile : Main [email protected]@High
HDR format : Dolby Vision, Version 1.0, dvhe.05.06, BL+RPU
Codec ID : dvhe
Codec ID/Info : High Efficiency Video Coding with Dolby Vision
Duration : 2 h 22 min
Bit rate : 14.4 Mb/s
Width : 3 840 pixels
Original width : 3 836 pixels
Height : 1 600 pixels
Display aspect ratio : 2.40:1
Original display aspect ratio : 2.40:1
Frame rate mode : Constant
Frame rate : 23.976 (24000/1001/189150) FPS
Color space : YUV
Chroma subsampling : 4:2:0
Bit depth : 10 bits
Bits/(Pixel*Frame) : 0.098
Stream size : 14.4 GiB (95%)
Default : Yes
Alternate group : 1
Encoded date : UTC 2021-07-29 10:16:38
Tagged date : UTC 2021-07-29 10:25:56
Codec configuration box : hvcC+dvcC

Audio
ID : 2
Format : E-AC-3 JOC
Format/Info : Enhanced AC-3 with Joint Object Coding
Commercial name : Dolby Digital Plus with Dolby Atmos
Codec ID : ec-3
Duration : 2 h 22 min
Bit rate mode : Constant
Bit rate : 768 kb/s
Maximum bit rate : 811 kb/s
Channel(s) : 6 channels
Channel layout : L R C LFE Ls Rs
Sampling rate : 48.0 kHz
Frame rate : 31.250 FPS (1536 SPF)
Compression mode : Lossy
Stream size : 785 MiB (5%)
Title : English (US)
Language : English
Service kind : Complete Main
Encoded date : UTC 2021-07-29 10:15:38
Tagged date : UTC 2021-07-29 10:25:56
Complexity index : Not present / 16
Number of dynamic objects : 15
Bed channel count : 1 channel
Bed channel configuration : LFE

Text #1
ID : 3
Format : Timed Text
Codec ID : tx3g
Duration : 52 min 39 s
Bit rate mode : Variable
Bit rate : 50 b/s
Stream size : 19.3 KiB (0%)
Title : English
Language : English
Forced : No
Encoded date : UTC 2021-07-29 10:25:55
Tagged date : UTC 2021-07-29 10:25:56

Text #2
ID : 4
Format : Timed Text
Codec ID : tx3g
Duration : 52 min 39 s
Bit rate mode : Variable
Bit rate : 63 b/s
Stream size : 24.4 KiB (0%)
Title : English [CC]
Language : English
Forced : No
Encoded date : UTC 2021-07-29 10:25:55
Tagged date : UTC 2021-07-29 10:25:56

Text #3
ID : 5
Format : Timed Text
Codec ID : tx3g
Duration : 2 h 13 min
Bit rate mode : Variable
Bit rate : 44 b/s
Stream size : 42.7 KiB (0%)
Title : Espa?±ol (Latinoam??rica)
Language : Spanish
Forced : No
Encoded date : UTC 2021-07-29 10:25:56
Tagged date : UTC 2021-07-29 10:25:56

Text #4
ID : 6
Format : Timed Text
Codec ID : tx3g
Duration : 2 h 22 min
Bit rate mode : Variable
Bit rate : 44 b/s
Stream size : 46.1 KiB (0%)
Title : Fran?§ais (Canada)
Language : French
Forced : No
Encoded date : UTC 2021-07-29 10:25:56
Tagged date : UTC 2021-07-29 10:25:56

Menu
00:00:00.000 : Chapter 1
00:04:47.911 : Chapter 2
00:11:11.546 : Chapter 3
00:20:36.903 : Chapter 4
00:25:26.901 : Chapter 5
00:30:27.201 : Chapter 6
00:34:20.351 : Chapter 7
00:42:13.824 : Chapter 8
00:49:40.105 : Chapter 9
00:55:46.679 : Chapter 10
00:59:58.306 : Chapter 11
01:07:59.204 : Chapter 12
01:19:29.853 : Chapter 13
01:28:47.452 : Chapter 14
01:34:53.777 : Chapter 15
01:40:28.028 : Chapter 16
01:50:57.198 : Chapter 17
02:01:03.220 : Chapter 18
02:05:22.604 : Chapter 19
02:10:18.068 : Chapter 20





1 个附件 售价 大小 下载 时间

Fast.and.Furious.F9.The.Fast.Saga.2021.2160p.WEB-DL.DDP5.1.Atmos.DV.MP4.x265-FLUX.torrent 0 金币 19.62K 18320 次 2月前

#1楼
发帖时间:2021-07-29 21:10:12   |   回复数:5
thawen
江湖小虾
没有字幕吗?去哪里能下一个字幕呢。。。
2月前 #2楼
xl0413
小有名气
引用 thawen:

没有字幕吗?去哪里能下一个字幕呢。。。

兄弟,别急,面包会有的,中文字幕也会有的。

2月前 #3楼
smasnk
一派掌门

中文字幕,可以凑合看
更新部分特效中英双字


2 个附件 售价 大小 下载 时间

速度与激情9.中文字幕.2021.1080p.srt 0 金币 114.94K 9884 次 2月前

Fast.and.Furious.F9.The.Fast.Saga.2021.1080p.WEB.h264-RUMOUR.ass 0 金币 303.02K 469 次 1月前

2月前 #4楼
thawen
江湖小虾
引用 smasnk:

中文字幕,可以凑合看

非常感谢 

2月前 #5楼
chulps
一代宗师
~ 珍惜+支持 ~
2月前 #6楼
游客组