q3r3
一代宗师

[2020] [其他] [恐怖] [BD-1080P] 一切为了杰克森/一切为了劫个孙 Anything.for.Jackson.2020.1080p.BluRay.x264-UNVEiL 9.21GB

-->

帖子完整标题:一切为了杰克森/一切为了劫个孙 Anything.for.Jackson.2020.1080p.BluRay.x264-UNVEiL 9.21GB



◎译  名 一切为了杰克森/一切为了劫个孙
◎片  名 Anything for Jackson
◎年  代 2020
◎产  地 加拿大
◎类  别 恐怖
◎语  言 英语
◎上映日期 2020-09-01(加拿大奇幻影展) / 2020-12-03(加拿大)
◎豆瓣评分 6.3/10 from 2859 users
◎豆瓣链接 https://movie.douban.com/subject/35182114/
◎片  长 97分钟
◎导  演 贾斯汀·G·戴克 Justin G. Dyck
◎编  剧 基思·库珀 Keith Cooper
◎主  演 希拉·麦卡锡 Sheila McCarthy
      朱利安·瑞钦斯 Julian Richings
      康斯坦蒂娜·曼特罗斯 Konstantina Mantelos
      乔什·克鲁达斯 Josh Cruddas
      亚尼克·比森 Yannick Bisson
      兰内特·瓦雷 Lanette Ware
      克莱尔·卡瓦哈罗 Claire Cavalheiro
      斯科特·卡瓦列罗 Scott Cavalheiro
      达斯顿·威廉·伦德 Daxton William Lund
      凯特琳·勒柏 Kaitlyn Leeb
      丽贝卡·拉玛什 Rebecca Lamarche
      杰恩·伊斯特伍德 Jayne Eastwood
      艾·巴雷特 Ai Barrett
      玛丽安·索楚克 Marianne Sawchuk
      米凯拉·比森 Mikaela Bisson
      特洛伊·詹姆斯 Troy James

◎标  签 恐怖 | 惊悚 | 加拿大 | 邪教 | 2020 | 黑色幽默 | 犯罪 | 死亡

◎简  介

  一对老夫妻为了复活自己的外孙,于是绑架孕妇,尝试执行恶魔仪式,让孙子通过孕妇未出世的孩子复活,结果随着警察的调查和超自然事件的发生,导致事情逐渐失去老夫妻的控制。

Video
ID : 1
Format : AVC
Format/Info : Advanced Video Codec
Format profile : [email protected]
Format settings : CABAC / 5 Ref Frames
Format settings, CABAC : Yes
Format settings, Reference frames : 5 frames
Codec ID : V_MPEG4/ISO/AVC
Duration : 1 h 37 min
Bit rate : 11.5 Mb/s
Width : 1 920 pixels
Height : 808 pixels
Display aspect ratio : 2.40:1
Frame rate mode : Constant
Frame rate : 23.976 (24000/1001/189150) FPS
Color space : YUV
Chroma subsampling : 4:2:0
Bit depth : 8 bits
Scan type : Progressive
Bits/(Pixel*Frame) : 0.309
Stream size : 7.81 GiB (85%)
Writing library : x264 core 164 r3065 ae03d92
Encoding settings : cabac=1 / ref=5 / deblock=1:-3:-3 / analyse=0x3:0x133 / me=umh / subme=9 / psy=1 / psy_rd=1.00:0.00 / mixed_ref=1 / me_range=16 / chroma_me=1 / trellis=2 / 8x8dct=1 / cqm=0 / deadzone=21,11 / fast_pskip=0 / chroma_qp_offset=-2 / threads=24 / lookahead_threads=2 / sliced_threads=0 / nr=0 / decimate=1 / interlaced=0 / bluray_compat=0 / constrained_intra=0 / bframes=3 / b_pyramid=2 / b_adapt=2 / b_bias=0 / direct=3 / weightb=1 / open_gop=0 / weightp=2 / keyint=250 / keyint_min=23 / scenecut=40 / intra_refresh=0 / rc_lookahead=60 / rc=crf / mbtree=1 / crf=19.0 / qcomp=0.60 / qpmin=0 / qpmax=69 / qpstep=4 / ip_ratio=1.40 / aq=1:1.00
Language : English
Default : Yes
Forced : No

Audio
ID : 2
Format : DTS XBR
Format/Info : Digital Theater Systems
Commercial name : DTS-HD High Resolution Audio
Codec ID : A_DTS
Duration : 1 h 37 min
Bit rate mode : Constant
Bit rate : 2 046 kb/s
Channel(s) : 6 channels
Channel layout : C L R Ls Rs LFE
Sampling rate : 48.0 kHz
Frame rate : 93.750 FPS (512 SPF)
Bit depth : 16 bits
Compression mode : Lossy
Stream size : 1.39 GiB (15%)
Language : English
Default : Yes
Forced : No

Menu
00:00:00.000 : en:Chapter 01
00:08:15.203 : en:Chapter 02
00:16:02.503 : en:Chapter 03
00:24:47.695 : en:Chapter 04
00:34:26.481 : en:Chapter 05
00:41:55.972 : en:Chapter 06
00:51:45.644 : en:Chapter 07
01:00:24.412 : en:Chapter 08
01:09:34.962 : en:Chapter 09
01:16:13.527 : en:Chapter 10
01:23:46.230 : en:Chapter 11
01:33:37.821 : en:Chapter 12





1 个附件 售价 大小 下载 时间

Anything.for.Jackson.2020.1080p.BluRay.x264-UNVEiL.torrent 0 金币 23.85K 819 次 2月前

#1楼
发帖时间:2021-07-29 16:12:21   |   回复数:1
黑色幽默66
武林高手
感谢楼主分享 !!!
2月前 #2楼
游客组