travismk
一代宗师

[更 早] [其他] [动作] [WEB-720P] 速度与激情9/F9狂野时速 Fast.and.Furious.F9.The.Fast.Saga.2021.720p.AMZN.WEBRip.DDP5.1.Atm

-->

帖子完整标题:速度与激情9/F9狂野时速 Fast.and.Furious.F9.The.Fast.Saga.2021.720p.AMZN.WEBRip.DDP5.1.Atmos.x264-NOGRP 4.42GB



◎译  名 速度与激情9/F9狂野时速(港)/Fast & Furious 9/FF9/狂野时速9/玩命关头9(台)/速激9
◎片  名 F9: The Fast Saga
◎年  代 2021
◎产  地 美国,泰国,加拿大
◎类  别 动作 / 犯罪
◎语  言 英语
◎上映日期 2021-05-19(韩国) / 2021-05-21(中国大陆) / 2021-06-25(美国)
◎豆瓣评分 5.5/10 from 129268 users
◎豆瓣链接 https://movie.douban.com/subject/25728006/
◎片  长 142分钟(中国大陆)
◎导  演 林诣彬 Justin Lin
◎编  剧 丹·凯西 Daniel Casey / 盖瑞·斯科特·汤普森 Gary Scott Thompson / 克里斯·摩根 Chris Morgan
◎主  演 范·迪塞尔 Vin Diesel
      约翰·塞纳 John Cena
      米歇尔·罗德里格兹 Michelle Rodriguez
      乔丹娜·布鲁斯特 Jordana Brewster
      泰瑞斯·吉布森 Tyrese Gibson
      卢达·克里斯 Ludacris
      查理兹·塞隆 Charlize Theron
      海伦·米伦 Helen Mirren
      姜成镐 Sung Kang
      娜塔莉·伊曼纽尔 Nathalie Emmanuel
      迈克尔·鲁克 Michael Rooker
      卢卡斯·布莱克 Lucas Black
      杜俊纬 Jason Tobin
      卡迪·B Cardi B
      吉姆·帕拉克 Jim Parrack
      芬恩·科尔 Finn Cole
      安珀·西耶娜 Amber Sienna
      马丁·福特 Martyn Ford
      艾拉·沃克 Ella Walker
      泽井杏奈 Anna Sawai
      图厄·埃尔斯特德·拉斯姆森 Thue Ersted Rasmussen
      米拉吉·格尔比克 Miraj Grbic
      吉米·斯达 Jimmy Star
      莱克斯·艾尔 Lex Elle
      温尼·贝内特 Vinnie Bennett
      马克·克雷尼克 Mark Krenik
      杰森·斯坦森 Jason Statham

◎标  签 动作 | 飙车 | 美国 | 犯罪 | 跑车 | 2021 | 科幻 | 赛车

◎简  介

  “唐老大”多姆·托莱多(范·迪塞尔 饰)与莱蒂(米歇尔·罗德里格兹 饰)和他的儿子小布莱恩,过上了远离纷扰的平静生活。然而他们也知道,安宁之下总潜藏着危机。这一次,为了保护他所爱的人,唐老大不得不直面过去。他和伙伴们面临的是一场足以引起世界动荡的阴谋,以及一个前所未遇的一流杀手和高能车手。而这个名叫雅各布(约翰·塞纳 饰)的人,恰巧是多姆遗落在外的亲弟弟。

◎获奖情况

  第7届豆瓣电影年度榜单 ?(2020)
  最值得期待的外语电影(提名)
  
  第6届豆瓣电影年度榜单 ?(2019)
  最值得期待的外语电影(提名)

Video
ID : 1
Format : AVC
Format/Info : Advanced Video Codec
Format profile : [email protected]
Format settings : CABAC / 4 Ref Frames
Format settings, CABAC : Yes
Format settings, Reference frames : 4 frames
Codec ID : V_MPEG4/ISO/AVC
Duration : 2 h 22 min
Bit rate mode : Constant
Bit rate : 3 655 kb/s
Nominal bit rate : 4 000 kb/s
Width : 1 248 pixels
Height : 520 pixels
Display aspect ratio : 2.40:1
Frame rate mode : Constant
Frame rate : 23.976 (24000/1001/189150) FPS
Color space : YUV
Chroma subsampling : 4:2:0
Bit depth : 8 bits
Scan type : Progressive
Bits/(Pixel*Frame) : 0.235
Stream size : 3.65 GiB (83%)
Default : Yes
Forced : No
Color range : Limited
Color primaries : BT.709
Transfer characteristics : BT.709
Matrix coefficients : BT.709

Audio
ID : 2
Format : E-AC-3 JOC
Format/Info : Enhanced AC-3 with Joint Object Coding
Commercial name : Dolby Digital Plus with Dolby Atmos
Codec ID : A_EAC3
Duration : 2 h 22 min
Bit rate mode : Constant
Bit rate : 768 kb/s
Channel(s) : 6 channels
Channel layout : L R C LFE Ls Rs
Sampling rate : 48.0 kHz
Frame rate : 31.250 FPS (1536 SPF)
Compression mode : Lossy
Stream size : 785 MiB (17%)
Title : English
Language : English
Service kind : Complete Main
Default : No
Forced : No
Complexity index : 16
Number of dynamic objects : 15
Bed channel count : 1 channel
Bed channel configuration : LFE

Text #1
ID : 3
Format : UTF-8
Codec ID : S_TEXT/UTF8
Codec ID/Info : UTF-8 Plain Text
Duration : 2 h 17 min
Bit rate : 42 b/s
Count of elements : 1585
Stream size : 42.8 KiB (0%)
Title : English
Language : English
Default : Yes
Forced : No

Text #2
ID : 4
Format : UTF-8
Codec ID : S_TEXT/UTF8
Codec ID/Info : UTF-8 Plain Text
Duration : 2 h 22 min
Bit rate : 54 b/s
Count of elements : 2113
Stream size : 57.4 KiB (0%)
Title : English [SDH]
Language : English
Default : No
Forced : No





1 个附件 售价 大小 下载 时间

Fast.and.Furious.F9.The.Fast.Saga.2021.720p.AMZN.WEBRip.DDP5.1.Atmos.x264-NOGRP.torrent 0 金币 22.76K 15119 次 2月前

#1楼
发帖时间:2021-07-29 15:00:07   |   回复数:1
yangbo83222179
一代宗师
谢谢楼主分享
2月前 #2楼
游客组